Jump to content


Photo

Support for iOS screen video captured with QuickTime Player


  • Please log in to reply
No replies to this topic

#1 kevin.s.i.

kevin.s.i.

    Newbie

  • Members
  • Pip
  • 3 posts

Posted 26 February 2016 - 12:51 PM

Hi, I'm almost done with your Air Video HD app, thank you!
Today I recorded my iPhone 6's screen using Lightning cable and El Capitan's QuickTime Player for the first time, and I realised that I can't stream the resulting video with Air Video HD.
 

FYI below is the information of the file retrieved with ffmpeg command.

 

Also, I'd really like it if you'd add a shuffle feature into Air Video HD client.

 

Thanks, 

Kevin

my-mac:~ me $ ffmpeg -i FileInQuestion.mov
ffmpeg version 3.0 Copyright (c) 2000-2016 the FFmpeg developers
  built with Apple LLVM version 7.0.2 (clang-700.1.81)
  configuration: --prefix=/usr/local/Cellar/ffmpeg/3.0 --enable-shared --enable-pthreads --enable-gpl --enable-version3 --enable-hardcoded-tables --enable-avresample --cc=clang --host-cflags= --host-ldflags= --enable-opencl --enable-libx264 --enable-libmp3lame --enable-libxvid --enable-libtheora --enable-librtmp --enable-libopencore-amrnb --enable-libopencore-amrwb --enable-libass --enable-ffplay --enable-vda
  libavutil      55. 17.103 / 55. 17.103
  libavcodec     57. 24.102 / 57. 24.102
  libavformat    57. 25.100 / 57. 25.100
  libavdevice    57.  0.101 / 57.  0.101
  libavfilter     6. 31.100 /  6. 31.100
  libavresample   3.  0.  0 /  3.  0.  0
  libswscale      4.  0.100 /  4.  0.100
  libswresample   2.  0.101 /  2.  0.101
  libpostproc    54.  0.100 / 54.  0.100
Input #0, mov,mp4,m4a,3gp,3g2,mj2, from 'FileInQuestion.mov':
  Metadata:
    major_brand     : qt  
    minor_version   : 0
    compatible_brands: qt  
    creation_time   : 2016-02-26 12:41:33
    com.apple.quicktime.make: Apple
    com.apple.quicktime.model: MacBookPro5,3
    com.apple.quicktime.software: Mac OS X 10.11.3 (15D21)
    com.apple.quicktime.creationdate: 2016-02-26T07:22:22+0900
  Duration: 00:02:27.76, start: 0.798350, bitrate: 22059 kb/s
    Stream #0:0(und): Video: h264 (High) (avc1 / 0x31637661), yuv420p, 1334x750, 20407 kb/s, 57.80 fps, 60 tbr, 60k tbn, 120k tbc (default)
    Metadata:
      creation_time   : 2016-02-26 12:41:33
      handler_name    : Core Media Data Handler
      encoder         : H.264
    Stream #0:1(und): Audio: pcm_s16be (lpcm / 0x6D63706C), 48000 Hz, stereo, s16, 1536 kb/s (default)
    Metadata:
      creation_time   : 2016-02-26 12:41:33
      handler_name    : Core Media Data Handler





0 user(s) are reading this topic

0 members, 0 guests, 0 anonymous users