Jump to content


Photo

Air Video Server on Ubuntu 13.10


  • Please log in to reply
No replies to this topic

#1 anfabio

anfabio

    Newbie

  • Members
  • Pip
  • 1 posts

Posted 20 October 2013 - 03:48 PM

Hello Guys,

 

 

I was using the latest "AirVideoServerLinux.jar" on Ubuntu 13.04 with no problems untll yesterday.

I upgraded my Ubuntu to 13.10 Saucy Salamander, and the Live Conversion stopped working.

I can still strem mp4 files to my iPad, but no other files.

There are no real errors. The video just stops as soon as it starts.

I also installed it on a fresh new Ubuntu on my other laptop and the got the same problem.

Here is the terminal output:

fabio@ubuntu-hp:/opt/airvideo-server$ /usr/bin/java -jar /opt/airvideo-server/AirVideoServerLinux.jar /opt/airvideo-server/AirVideoServerLinux.properties
DEBUG: SnapshotCache: Initializing Thumbnail Cache; Java Version: 1.7.0_45
DEBUG: SnapshotCache: Loaded existing Snapshot Index BTree with with 66 items.2013-10-20 13:25:08.494::INFO:  Logging to STDERR via org.mortbay.log.StdErrLog
2013-10-20 13:25:08.516::INFO:  jetty-6.1.x
2013-10-20 13:25:08.544::INFO:  Started SocketConnector@0.0.0.0:45631
DEBUG: PortMapperAction: Scheduling task PortMapperAction$2 (1880855893)
DEBUG: StatusReportAction: Scheduling task StatusReportAction$2 (1104309057)/opt/airvideo-server/bin/ffmpeg --segment-length 4 --segment-offset 0 --conversion-id f800610b-9b93-4e72-916a-3e100d983db386da6bd1-c259-45e8-a178-29818d36c526 --port-number 46631 -threads 4 -flags2 +fast -flags +loop -g 30 -keyint_min 1 -bf 0 -b_strategy 0 -flags2 -wpred-dct8x8 -cmp +chroma -deblockalpha 0 -deblockbeta 0 -refs 1 -coder 0 -me_range 16 -subq 5 -partitions +parti4x4+parti8x8+partp8x8 -trellis 0 -sc_threshold 40 -i_qfactor 0.71 -qcomp 0.6 -map 0.0:0.0 -map 0.1:0.1 -ss 0.0 -i "/media/DISCO2/Videos/Series/House MD Season 2-7/Season 5/House MD Season 5 Episode 03 - Adverse Events.avi" -vf "crop=624:352:0:0, scale=624:352" -aspect 624:352 -y -f mpegts -vcodec libx264 -bufsize 1024k -b 1200k -bt 1300k -qmax 48 -qmin 2 -r 23.976 -acodec libmp3lame -ab 192k -ar 48000 -ac 2 -
DEBUG: LiveConversion: >>
34746B6F347A72696D727F7E7436687E696D7E6934797275347D7D766B7E7C3B3636687E7C767E756F36777E757C6F733B2F3B3636687E7C767E756F
36747D7D687E6F3B2B3B36367874756D7E696872747536727F3B7D232B2B2D2A2B793622792228362F7E2C2936222A2D7A36287E2A2B2B7F2223287F
7928232D7F7A2D797F2A3678292E22362F2E7E23367A2A2C23362922232A237F282D782E292D3B36366B74696F36756E76797E693B2F2D2D282A3B36
6F73697E7A7F683B2F3B367D777A7C68293B307D7A686F3B367D777A7C683B307774746B3B367C3B282B3B36707E6272756F447672753B2A3B36797D
3B2B3B367944686F697A6F7E7C623B2B3B367D777A7C68293B366C6B697E7F367F786F2363233B3678766B3B3078736974767A3B367F7E7977747870
7A776B737A3B2B3B367F7E7977747870797E6F7A3B2B3B36697E7D683B2A3B3678747F7E693B2B3B36767E44697A757C7E3B2A2D3B36686E796A3B2E
3B366B7A696F726F727475683B306B7A696F722F632F306B7A696F72236323306B7A696F6B2363233B366F697E777772683B2B3B366878446F73697E
687374777F3B2F2B3B3672446A7D7A786F74693B2B352C2A3B366A7874766B3B2B352D3B36767A6B3B2B352B212B352B3B36767A6B3B2B352A212B35
2A3B3668683B2B352B3B36723B3934767E7F727A345F5248585429344D727F7E746834487E69727E683453746E687E3B565F3B487E7A6874753B2936
2C34487E7A6874753B2E3453746E687E3B565F3B487E7A6874753B2E3B5E6B7268747F7E3B2B283B363B5A7F6D7E69687E3B5E6D7E756F68357A6D72
393B366D7D3B397869746B262D292F21282E29212B212B373B68787A777E262D292F21282E29393B367A686B7E786F3B2D292F21282E293B36623B36
7D3B766B7E7C6F683B366D78747F7E783B77727963292D2F3B36796E7D6872617E3B2A2B292F703B36793B2A292B2B703B36796F3B2A282B2B703B36
6A767A633B2F233B366A7672753B293B36693B292835222C2D3B367A78747F7E783B777279766B28777A767E3B367A793B2A2229703B367A693B2F23
2B2B2B3B367A783B293B36
<<

DEBUG: SegmentedEncoder: ffmpeg version 0.7, Copyright (c) 2000-2011 the Libav developers
DEBUG: SegmentedEncoder:   built on Jan 12 2013 09:05:41 with gcc 4.7.2
DEBUG: SegmentedEncoder: This program is not developed anymore and is only provided for compatibility. Use avconv instead (see Changelog for the list of incompatible changes).
DEBUG: SegmentedEncoder: [mpeg4 @ 0x219ade0] Invalid and inefficient vfw-avi packed B frames detected
DEBUG: SegmentedEncoder: Input #0, avi, from '/media/DISC2/Videos/Event101013.avi':
DEBUG: SegmentedEncoder:   Metadata:
DEBUG: SegmentedEncoder:     encoder         : VirtualDubMod 1.5.10.2 (build 2540/release)
DEBUG: SegmentedEncoder:   Duration: 00:43:59.55, start: 0.000000, bitrate: 1111 kb/s
DEBUG: SegmentedEncoder:     Stream #0.0: Video: mpeg4 (Advanced Simple Profile), yuv420p, 624x352 [PAR 1:1 DAR 39:22], 23.98 tbr, 23.98 tbn, 23.98 tbc
DEBUG: SegmentedEncoder:     Stream #0.1: Audio: ac3, 48000 Hz, 5.1, s16, 448 kb/s
DEBUG: SegmentedEncoder: [buffer @ 0x2198320] w:624 h:352 pixfmt:yuv420p
DEBUG: SegmentedEncoder: [crop @ 0x21986c0] w:624 h:352 -> w:624 h:352
DEBUG: SegmentedEncoder: [scale @ 0x219a6e0] w:624 h:352 fmt:yuv420p -> w:624 h:352 fmt:yuv420p flags:0x4
DEBUG: SegmentedEncoder: [libx264 @ 0x219c140] VBV maxrate unspecified, assuming CBR
DEBUG: SegmentedEncoder: [libx264 @ 0x219c140] using SAR=1/1
/opt/airvideo-server/bin/ffmpeg -ss 5.0 -vframes 1 -i "/media/DISC2/Videos/Event101013.avi" -f mjpeg -
DEBUG: Thumbnail: >>
34746B6F347A72696D727F7E7436687E696D7E6934797275347D7D766B7E7C3B3668683B2E352B3B366D7D697A767E683B2A3B36723B3934767E7F72
7A345F5248585429344D727F7E746834487E69727E683453746E687E3B565F3B487E7A6874753B29362C34487E7A6874753B2E3453746E687E3B565F
3B487E7A6874753B2E3B5E6B7268747F7E3B2B283B363B5A7F6D7E69687E3B5E6D7E756F68357A6D72393B367D3B76716B7E7C3B36
<<

===================================================================================================
DEBUG: Thumbnail: ffmpeg version 0.7, Copyright (c) 2000-2011 the Libav developers
DEBUG: Thumbnail:   built on Jan 12 2013 09:05:41 with gcc 4.7.2
DEBUG: Thumbnail: This program is not developed anymore and is only provided for compatibility. Use avconv instead (see Changelog for the list of incompatible changes).
DEBUG: Thumbnail: [mpeg4 @ 0x19c6820] Invalid and inefficient vfw-avi packed B frames detected
DEBUG: Thumbnail: Input #0, avi, from '/media/DISC2/Videos/Event101013.avi':
DEBUG: Thumbnail:   Metadata:
DEBUG: Thumbnail:     encoder         : VirtualDubMod 1.5.10.2 (build 2540/release)
DEBUG: Thumbnail:   Duration: 00:43:59.55, start: 0.000000, bitrate: 1111 kb/s
DEBUG: Thumbnail:     Stream #0.0: Video: mpeg4 (Advanced Simple Profile), yuv420p, 624x352 [PAR 1:1 DAR 39:22], 23.98 tbr, 23.98 tbn, 23.98 tbc
DEBUG: Thumbnail:   Target Framerate: 23.976
DEBUG: Thumbnail:   Couldn't parse framerate
DEBUG: Thumbnail:     Stream #0.1: Audio: ac3, 48000 Hz, 5.1, s16, 448 kb/s
DEBUG: Thumbnail: Incompatible pixel format 'yuv420p' for codec 'mjpeg', auto-selecting format 'yuvj420p'
DEBUG: Thumbnail: [buffer @ 0x19c84c0] w:624 h:352 pixfmt:yuv420p
DEBUG: Thumbnail: [ffsink @ 0x19c8900] auto-inserting filter 'auto-inserted scaler 0' between the filter 'src' and the filter 'out'
DEBUG: Thumbnail: [scale @ 0x19c5700] w:624 h:352 fmt:yuv420p -> w:624 h:352 fmt:yuvj420p flags:0x4
DEBUG: Thumbnail: Output #0, mjpeg, to 'pipe:':
DEBUG: Thumbnail:   Metadata:

Any ideas?

 

 

 






0 user(s) are reading this topic

0 members, 0 guests, 0 anonymous users